TV / Komedia
Ucho Prezesa S04E12-14 (ODC. 56-58) [1080p.WEB-DL.H.264.AC3] [PL]


Dodał: Lukarusi
Data dodania:
2019-01-30 22:29:05
Rozmiar: 2.67 GB
Ostat. aktualizacja:
2019-02-18 20:07:06
Seedów: 154
Peerów: 13


Komentarze: 9

Info:

produkcja: PL
gatunek: Komedia
twórca: Robert Górski
reżyseria: Tadeusz Śliwa
czas trwania: ok. 14-16 min.

Opis:

Satyryczny serial o polskiej polityce rozgrywa się w wyobrażonym gabinecie prezesa, gdzie pani Basia i Mariusz troszczą się o prezesa, jak tylko potrafią. W każdym odcinku gabinet odwiedzają goście, którzy chcieliby szepnąć coś prezesowi na ucho.

Obsada:

Robert Górski - Prezes Jarosław
Mikołaj Cieślak - Mariusz
Izabela Dąbrowska - pani Basia
Michał Czernecki - prezes telewizji Jacek
Robert Majewski - prezes Rady Mediów Narodowych
Paweł Koślik - prezydent
Wojciech Kalarus - Antoni, minister wojny
Grzegorz Ciągardlak - Misio
Sebastian Stankiewicz - pan Tomek, syn pani Basi
Sebastian Konrad - wicepremier, minister rozwoju
Katarzyna Żak - Jola pielęgniarka
Agnieszka Wosińska - rzecznik Beata
Adam Krawczuk - Adam od PR-u
Magdalena Smalara - Ania, minister edukacji

Dane techniczne:

Format : Matroska
Format version : Version 4 / Version 2
File size : 968 MiB
Duration : 16 min 16 s
Overall bit rate mode : Variable
Overall bit rate : 8 312 kb/s
Encoded date : UTC 2019-01-30 21:20:28

Video
ID : 1
Format : AVC
Format/Info : Advanced Video Codec
Format profile : High@L4
Format settings : CABAC / 4 Ref Frames
Format settings, CABAC : Yes
Format settings, ReFrames : 4 frames
Codec ID : V_MPEG4/ISO/AVC
Duration : 16 min 16 s
Bit rate mode : Variable
Bit rate : 7 925 kb/s
Maximum bit rate : 12.0 Mb/s
Width : 1 920 pixels
Height : 800 pixels
Display aspect ratio : 2.40:1
Frame rate mode : Constant
Frame rate : 29.970 (29970/1000) FPS
Original frame rate : 29.970 (30000/1001) FPS
Color space : YUV
Chroma subsampling : 4:2:0
Bit depth : 8 bits
Scan type : Progressive
Bits/(Pixel*Frame) : 0.172
Stream size : 923 MiB (95%)
Default : Yes
Forced : Yes
Color range : Limited
Color primaries : BT.709
Transfer characteristics : BT.709
Matrix coefficients : BT.709

Audio
ID : 2
Format : AC-3
Format/Info : Audio Coding 3
Commercial name : Dolby Digital
Codec ID : A_AC3
Duration : 16 min 16 s
Bit rate mode : Constant
Bit rate : 384 kb/s
Channel(s) : 2 channels
Channel layout : L R
Sampling rate : 48.0 kHz
Frame rate : 31.250 FPS (1536 SPF)
Bit depth : 16 bits
Compression mode : Lossy
Stream size : 44.7 MiB (5%)
Language : Polish
Service kind : Complete Main
Default : Yes
Forced : Yes

Lista plików Show/Hide [Pokaż/Ukryj]
Trackery
  • udp://tracker.leechers-paradise.org:6969/announce
  • udp://9.rarbg.com:2800/announce
  • udp://9.rarbg.me:2740/announce
  • udp://exodus.desync.com:6969/announce
  • http://tracker.tfile.me/announce
  • http://tracker.torrentyorg.pl/announce
  • http://agusiq-torrents.pl:6969/announce
  • udp://eddie4.nl:6969/announce
  • udp://tracker.glotorrents.com:6969/announce
  • udp://torrent.gresille.org:80/announce
  • udp://poloniumsurfer.tk:6969/announce
  • udp://10.rarbg.com/announce
  • udp://tracker.openbittorrent.com:80/announce
  • udp://sugoi.pomf.se:80/announce
  • udp://tracker.pomf.se:80/announce
  • http://mgtracker.org:2710/announce
  • http://retracker.omsk.ru:2710/announce
  • udp://t1.pow7.com/announce
  • http://tracker.filetracker.pl:8089/announce
  • udp://tracker.publicbt.com/announce
  • udp://tracker.torrentbay.to:6969/announce
  • udp://tracker.prq.to/announce
  • http://tracker.vanitycore.co:6969/announce
  • http://tracker.city9x.com:2710/announce
  • udp://tracker.istole.it:80/announce
  • udp://shadowshq.eddie4.nl:6969/announce

<< Poprzednia      Następna >>
1 - 9

Dodał: sarvandel Data: 2019-01-30 23:20:55

Podziękował

Dodał: Rudzielec Data: 2019-01-31 09:16:55

Dzięki !!!!

Dodał: sknerus133 Data: 2019-01-31 09:41:01

dzieki

Dodał: pite89 Data: 2019-01-31 11:47:58

Dobra robota.Dzięki

Dodał: wielebny16 Data: 2019-02-06 10:40:34

dzięki wielkie

Dodał: przemez2 Data: 2019-02-06 16:13:40

Jesteś Wielki

Dodał: v1r00z667 Data: 2019-02-11 23:00:07

Szkoda że już koniec... jedyny dobry 'serial' na polskiej scenie a nie jakieś m jak miłość

Dodał: bono Data: 2019-02-13 13:24:12

dzięki!!!

Dodał: spyderix Data: 2019-02-18 12:01:13

dzieki

1 - 9
<< Poprzednia      Następna >>

Żaden z plików nie znajduje się na serwerze. Torrenty są własnością użytkowników. Administrator serwisu nie może ponieść konsekwencji za to co użytkownicy wstawiają, lub za to co czynią na stronie. Nie możesz używać tego serwisu do rozpowszechniania lub ściągania materiałów do których nie masz odpowiednich praw lub licencji. Użytkownicy odpowiedzialni są za przestrzeganie tych zasad.
Copyright © 2019 Ex-torrenty.org
Bad Education | 왜그래 풍상씨 15 16회 합본.E08.190131.720p NEXT.mp4 | Far Away