HD / Sci-Fi
Riddick (DC TRILOGY) - (720/1080) (DTS) (60FPS) (Napisy PL)


Dodał: Uploader
Data dodania:
2019-02-11 22:50:45
Rozmiar: 21.72 GB
Ostat. aktualizacja:
2019-02-16 10:31:54
Seedów: 9
Peerów: 8


Komentarze: 1

...( Info )...

reżyseria: David Twohy
scenariusz: David TwohyJim Wheat
gatunek: Akcja/Sci-Fi
produkcja: USA
premiera: 2 czerwca 2000 (Polska) 18 lutego 2000 (świat)

...( Opis )...

Na nieznanej planecie rozbija się statek z więźniem widzącym w ciemności, Riddickiem. Tymczasem nadciąga długotrwała noc, podczas której z ukrycia wyjdą krwiożercze bestie.

...( Obsada )...

Vin Diesel jako Richard B. Riddick
Radha Mitchell jako Carolyn Fry
Cole Hauser jako William J. Johns
Keith David jako Abu "Imam" al-Walid
Lewis Fitz-Gerald jako Paris P. Ogilvie
Claudia Black jako Sharon "Shazza" Montgomery
Rhiana Griffith jako Jack

...( Dane Techniczne )...

Pitch Black DC
Video
ID : 1
Format : AVC
Format/Info : Advanced Video Codec
Format profile : High@L4.1
Format settings, CABAC : Yes
Format settings, ReFrames : 9 frames
Codec ID : V_MPEG4/ISO/AVC
Duration : 1 h 51 min
Bit rate : 7 700 kb/s
Width : 1 280 pixels
Height : 544 pixels
Display aspect ratio : 2.35:1
Frame rate mode : Constant
Frame rate : 59.940 (59940/1000) FPS

Audio
ID : 3
Format : DTS
Format/Info : Digital Theater Systems
Mode : 16
Format settings, Endianness : Big
Codec ID : A_DTS
Duration : 1 h 51 min
Bit rate mode : Constant
Bit rate : 1 509 kb/s
Channel(s) : 6 channels
Channel positions : Front: L C R, Side: L R, LFE
Sampling rate : 48.0 kHz
Frame rate : 93.750 FPS (512 spf)
Bit depth : 24 bits
Compression mode : Lossy
Stream size : 1.18 GiB (16%)
Language : English
Default : Yes
Forced : No

Chronicles od Riddick DC
Video
ID : 1
Format : AVC
Format/Info : Advanced Video Codec
Format profile : High@L4.1
Format settings, CABAC : Yes
Format settings, ReFrames : 9 frames
Codec ID : V_MPEG4/ISO/AVC
Duration : 2 h 13 min
Bit rate : 5 630 kb/s
Width : 1 280 pixels
Height : 536 pixels
Display aspect ratio : 2.40:1
Frame rate mode : Variable
Frame rate : 58.905 FPS
Original frame rate : 59.940 (59940/1000) FPS


Audio
ID : 3
Format : DTS
Format/Info : Digital Theater Systems
Mode : 16
Format settings, Endianness : Big
Codec ID : A_DTS
Duration : 2 h 14 min
Bit rate mode : Constant
Bit rate : 1 509 kb/s
Channel(s) : 6 channels
Channel positions : Front: L C R, Side: L R, LFE
Sampling rate : 48.0 kHz
Frame rate : 93.750 FPS (512 spf)
Bit depth : 24 bits
Compression mode : Lossy
Stream size : 1.41 GiB (21%)
Language : English
Default : Yes
Forced : No

Riddick DC
Video
ID : 3
Format : AVC
Format/Info : Advanced Video Codec
Format profile : High@L4.2
Format settings, CABAC : Yes
Format settings, ReFrames : 4 frames
Codec ID : V_MPEG4/ISO/AVC
Duration : 2 h 6 min
Bit rate : 7 331 kb/s
Width : 1 920 pixels
Height : 800 pixels
Display aspect ratio : 2.40:1
Frame rate mode : Constant
Frame rate : 59.940 (60000/1001) FPS

Audio
ID : 1
Format : DTS
Format/Info : Digital Theater Systems
Mode : 16
Format settings, Endianness : Big
Codec ID : A_DTS
Duration : 2 h 6 min
Bit rate mode : Constant
Bit rate : 1 509 kb/s
Channel(s) : 6 channels
Channel positions : Front: L C R, Side: L R, LFE
Sampling rate : 48.0 kHz
Frame rate : 93.750 FPS (512 spf)
Bit depth : 24 bits
Compression mode : Lossy
Stream size : 1.34 GiB (17%)
Language : English
Default : Yes
Forced : No

Lista plików Show/Hide [Pokaż/Ukryj]
Trackery
  • udp://tracker.opentrackr.org:1337/announce
  • http://tracker.electro-torrent.pl/announce
  • udp://tracker.openbittorrent.com:80/announce

<< Poprzednia      Następna >>
1 - 1

Dodał: yakuza00 Data: 2019-02-14 05:59:17

Dzięki.

1 - 1
<< Poprzednia      Następna >>

Żaden z plików nie znajduje się na serwerze. Torrenty są własnością użytkowników. Administrator serwisu nie może ponieść konsekwencji za to co użytkownicy wstawiają, lub za to co czynią na stronie. Nie możesz używać tego serwisu do rozpowszechniania lub ściągania materiałów do których nie masz odpowiednich praw lub licencji. Użytkownicy odpowiedzialni są za przestrzeganie tych zasad.
Copyright © 2019 Ex-torrenty.org
DC's Legends of Tomorrow - Season 2 | Harry Potter And The Order Of The Phoenix | The Carbonaro Effect Season 4 Episode 15 s04e15