Wygląd torrentów:
Kategoria:
Anime
Gatunek:
Filmy
Ilość torrentów:
74
Seedów: 3
Komentarze: 0
Data dodania:
2019-02-09 18:19:32
Rozmiar: 21.97 GB
Peerów: 1
Dodał: Karmad
Seedów: 0
Komentarze: 0
Data dodania:
2018-12-29 14:17:30
Rozmiar: 10.87 GB
Peerów: 1
Dodał: roksia
Seedów: 0
Komentarze: 0
Data dodania:
2018-12-29 14:12:49
Rozmiar: 10.24 GB
Peerów: 3
Dodał: roksia
Seedów: 0
Data dodania:
2018-12-29 14:06:09
Rozmiar: 2.83 GB
Peerów: 2
Dodał: roksia
Writing library : libebml v1.3.4 + libmatroska v1.4.5

Video
ID : 1
Format : AVC
Format/INFO : Advanced Video Codec
Format profile : Main@L4.1
Format settings : CABAC / 4 Ref Frames
Format settings, CABAC : Yes
Format settings, ReFrames : 4 frames
Codec ID : V_MPEG4/ISO/AVC
Duration : 1 h 46 min
Bit rate : 5 541 kb/s
Width : 1 920 pixels
Height : 1 080 pixels
Display aspect ratio : 16:9
Frame rate mode : Constant
Frame rate : 23.976 (24000/1001) FPS
Color space : YUV
Chroma subsampling : 4:2:0
Bit depth : 8 bits
Scan type : Progressive
Bits/(Pixel*Frame) : 0.111
Stream size : 4.13 GiB (65%)
Writing library : x264 core 152 r2851+58 429492e t_mod_Custom [8-bit@all X86_64]
Encoding settings : cabac=1 / ref=3 / deblock=1:0:0 / analyse=0x1:0x131 / me=umh / subme=9 / psy=1 / fade_compensate=0.00 / psy_rd=1.00:0.00 / mixed_ref=1 / me_range=32 / chroma_me=1 / trellis=1 / 8x8dct=0 / cqm=0 / deadzone=21,11 / fast_pskip=1 / chroma_qp_offset=-2 / threads=12 / lookahead_threads=1 / sliced_threads=0 / nr=0 / decimate=1 / interlaced=0 / bluray_compat=0 / constrained_intra=0 / fgo=0 / bframes=3 / b_pyramid=2 / b_adapt=1 / b_bias=0 / direct=1 / weightb=1 / open_gop=0 / weightp=2 / keyint=240 / keyint_min=1 / scenecut=40 / intra_refresh=0 / rc_lookahead=40 / rc=crf / mbtree=1 / crf=17.0000 / qcomp=0.60 / qpmin=0:0:0 / qpmax=69:69:69 / qpstep=4 / ip_ratio=1.40 / aq=1:1.00 / aq-sensitivity=10.00 / aq-factor=1.00:1.00:1.00 / aq2=0 / aq3=0
Default : Yes
Forced : No

Audio
ID : 2
Format : FLAC
Format/INFO : Free Lossless Audio Codec
Codec ID : A_FLAC
Duration : 1 h 46 min
Bit rate mode : Variable
Bit rate : 2 990 kb/s
Channel(s) : 6 channels
Channel layout : L R C LFE Ls Rs
Sampling rate : 48.0 kHz
Frame rate : 11.719 FPS (4096 SPF)
Bit depth : 24 bits
Compression mode : Lossless
Stream size : 2.23 GiB (35%)
Writing library : libFLAC 1.3.2 (UTC 2017-01-01)
Default : Yes
Forced : No
Seedów: 39
Komentarze: 0
Data dodania:
2018-12-14 12:20:00
Rozmiar: 6.35 GB
Peerów: 72
Dodał: Uploader
Writing library : libebml v0.7.7 + libmatroska v0.8.1
Attachments : TIMESI.TTF / Virtue.ttf / LTe52140.ttf / TIMES.TTF / TIMESBD.TTF / TIMESBI.TTF

Video
ID : 1
Format : AVC
Format/INFO : Advanced Video Codec
Format profile : High@L5.1
Format settings : CABAC / 13 Ref Frames
Format settings, CABAC : Yes
Format settings, ReFrames : 13 frames
Codec ID : V_MPEG4/ISO/AVC
Duration : 24 min 21 s
Bit rate : 1 208 kb/s
Nominal bit rate : 1 548 kb/s
Width : 704 pixels
Height : 480 pixels
Display aspect ratio : 16:9
Original display aspect ratio : 3:2
Frame rate mode : Constant
Frame rate : 23.976 FPS
Original frame rate : 29.970 (29970/1000) FPS
Color space : YUV
Chroma subsampling : 4:2:0
Bit depth : 8 bits
Scan type : Progressive
Bits/(Pixel*Frame) : 0.149
Stream size : 210 MiB (85%)
Title : Episode01: Land of Visible Pain
Writing library : x264 core 55
Encoding settings : cabac=1 / ref=10 / deblock=1:0:0 / analyse=0x3:0x133 / me=umh / subme=7 / brdo=1 / mixed_ref=1 / me_range=16 / chroma_me=1 / trellis=0 / 8x8dct=1 / cqm=2 / deadzone=15,6 / chroma_qp_offset=0 / threads=3 / nr=0 / decimate=0 / mbaff=0 / bframes=3 / b_pyramid=1 / b_adapt=1 / b_bias=0 / direct=0 / wpredb=1 / bime=1 / keyint=250 / keyint_min=25 / scenecut=40(pre) / rc=2pass / bitrate=1548 / ratetol=1.0 / rceq='blurCplx^(1-qComp)' / qcomp=0.60 / qpmin=10 / qpmax=51 / qpstep=4 / cplxblur=20.0 / qblur=0.5 / ip_ratio=1.40 / pb_ratio=1.30 / aq=1:1.1:15.0
Default : Yes
Forced : No

Audio
ID : 2
Format : Vorbis
Format settings, Floor : 1
Codec ID : A_VORBIS
Duration : 24 min 21 s
Bit rate mode : Variable
Bit rate : 192 kb/s
Channel(s) : 2 channels
Sampling rate : 48.0 kHz
Compression mode : Lossy
Stream size : 33.4 MiB (13%)
Title : 2.0 VORBIS
Writing application : Made with BeSweet v1.5b31
Writing library : aoTuV r1 (UTC 2005-11-17)
Language : Japanese
Default : Yes
Forced : No
Encoded_Application/Url :
http://DSPguru.doom9.org

Text #1
ID : 3
Format : ASS
Codec ID : S_TEXT/ASS
Codec ID/INFO : Advanced Sub Station Alpha
Compression mode : Lossless
Title : ass
Language : English
Default : Yes
Forced : No

Text #2
ID : 4
Format : UTF-8
Codec ID : S_TEXT/UTF8
Codec ID/INFO : UTF-8 Plain Text
Title : srt
Language : English
Default : No
Forced : No

UWAGA!!!
W Torrencie są zawarte czcionki, które należy zainstalować w systemie (Windows lub Linux) żeby napisy się poprawnie wyświetlały.
Najlepiej używać SMPlayera do odtwarzania na komputerze.
Seedów: 23
Komentarze: 0
Data dodania:
2018-12-13 18:01:51
Rozmiar: 4.38 GB
Peerów: 85
Dodał: Uploader
Seedów: 27
Komentarze: 0
Data dodania:
2018-12-13 11:04:42
Rozmiar: 8.21 GB
Peerów: 87
Dodał: Uploader
Seedów: 0
Data dodania:
2018-10-17 17:16:08
Rozmiar: 1.08 GB
Peerów: 0
Dodał: Uploader
Seedów: 0
Komentarze: 0
Data dodania:
2018-10-17 17:16:03
Rozmiar: 1.36 GB
Peerów: 0
Dodał: Uploader
Seedów: 0
Komentarze: 0
Data dodania:
2018-10-17 17:15:58
Rozmiar: 1.10 GB
Peerów: 0
Dodał: Uploader
Seedów: 0
Komentarze: 0
Data dodania:
2018-10-17 17:15:52
Rozmiar: 1.40 GB
Peerów: 0
Dodał: Uploader
Seedów: 148
Data dodania:
2018-10-14 16:46:42
Rozmiar: 8.80 GB
Peerów: 8
Dodał: Uploader
Seedów: 1
Komentarze: 0
Data dodania:
2018-09-22 15:37:24
Rozmiar: 3.94 GB
Peerów: 2
Dodał: Uploader
Seedów: 2
Komentarze: 0
Data dodania:
2018-09-22 15:37:20
Rozmiar: 3.90 GB
Peerów: 1
Dodał: Uploader
Seedów: 0
Data dodania:
2018-08-14 16:01:54
Rozmiar: 330.04 kB
Peerów: 0
Dodał: Uploader
Seedów: 155
Data dodania:
2018-08-11 17:14:13
Rozmiar: 6.64 GB
Peerów: 23
Dodał: Uploader
Seedów: 0
Komentarze: 0
Data dodania:
2018-08-09 14:19:21
Rozmiar: 4.70 MB
Peerów: 0
Dodał: Uploader
Seedów: 0
Komentarze: 0
Data dodania:
2018-08-08 12:29:45
Rozmiar: 2.65 GB
Peerów: 0
Dodał: Uploader
Seedów: 4
Komentarze: 0
Data dodania:
2018-07-20 10:09:18
Rozmiar: 700.36 MB
Peerów: 29
Dodał: hytry1
Seedów: 1861
Komentarze: 0
Data dodania:
2018-04-08 14:05:36
Rozmiar: 329.44 MB
Peerów: 30
Dodał: Uploader
Seedów: 94
Komentarze: 0
Data dodania:
2018-04-08 14:05:32
Rozmiar: 325.43 MB
Peerów: 9
Dodał: Uploader
Seedów: 160
Komentarze: 0
Data dodania:
2018-04-08 14:05:28
Rozmiar: 324.95 MB
Peerów: 9
Dodał: Uploader
Seedów: 3714
Komentarze: 0
Data dodania:
2018-04-08 14:05:23
Rozmiar: 321.99 MB
Peerów: 110
Dodał: Uploader
Seedów: 1919
Komentarze: 0
Data dodania:
2018-04-08 14:05:14
Rozmiar: 325.66 MB
Peerów: 33
Dodał: Uploader
Seedów: 3849
Komentarze: 0
Data dodania:
2018-04-08 14:05:10
Rozmiar: 322.88 MB
Peerów: 76
Dodał: Uploader
Seedów: 13
Komentarze: 0
Data dodania:
2018-04-08 14:05:07
Rozmiar: 315.29 MB
Peerów: 0
Dodał: Uploader
Seedów: 37
Komentarze: 0
Data dodania:
2018-04-08 14:05:02
Rozmiar: 760.54 MB
Peerów: 0
Dodał: Uploader
Seedów: 43
Komentarze: 0
Data dodania:
2018-04-08 14:05:00
Rozmiar: 1.00 GB
Peerów: 0
Dodał: Uploader
Seedów: 86
Komentarze: 0
Data dodania:
2018-04-08 14:04:56
Rozmiar: 715.03 MB
Peerów: 8
Dodał: Uploader
Seedów: 740
Komentarze: 0
Data dodania:
2018-04-08 14:04:53
Rozmiar: 570.73 MB
Peerów: 12
Dodał: Uploader