Wygląd torrentów:
Kategoria:
Filmy/Bajki
Gatunek:
x265
Ilość torrentów:
4
Seedów: 21
Komentarze: 0
Data dodania:
2017-03-25 17:50:41
Rozmiar: 2.53 GB
Peerów: 5
Dodał: JoseM
Seedów: 3
Komentarze: 0
Data dodania:
2017-01-03 18:32:26
Rozmiar: 1.38 GB
Peerów: 0
Dodał: JoseM
Seedów: 0
Data dodania:
2016-11-23 00:02:38
Rozmiar: 3.05 GB
Peerów: 1
Dodał: care3
Writing library       : libebml v1.3.1 + libmatroska v1.4.2
Attachments         : cower2.jpg

Video
ID             : 1
Format           : HEVC
Format/Info         : High Efficiency Video Coding
Codec ID          : V_MPEGH/ISO/HEVC
Duration          : 6 min 5 s
Bit rate          : 20.7 Mb/s
Width            : 3 840 pixels
Height           : 2 160 pixels
Display aspect ratio    : 16:9
Frame rate mode       : Constant
Frame rate         : 23.976 (24000/1001) FPS
Bits/(Pixel*Frame)     : 0.104
Stream size         : 902 MiB (97%)
Title            : Piper (2016)-alE13
Default           : Yes
Forced           : No

Audio
ID             : 2
Format           : AC-3
Format/Info         : Audio Coding 3
Mode extension       : CM (complete main)
Format settings, Endianness : Big
Codec ID          : A_AC3
Duration          : 6 min 5 s
Bit rate mode        : Constant
Bit rate          : 640 kb/s
Channel(s)         : 6 channels
Channel positions      : Front: L C R, Side: L R, LFE
Sampling rate        : 48.0 kHz
Frame rate         : 31.250 FPS (1536 spf)
Bit depth          : 16 bits
Compression mode      : Lossy
Stream size         : 27.9 MiB (3%)
Title            : Piper (2016)-alE13_AC3
Language          : English
Default           : Yes
Forced           : No
Seedów: 60
Komentarze: 0
Data dodania:
2016-11-10 10:39:10
Rozmiar: 935.68 MB
Peerów: 34
Dodał: alE13